Ffmpeg 4k Streaming

Ffmpeg 4k Streamingzst: Complete solution to record, convert and stream audio and video: Arch Linux Extra aarch64 Official ffmpeg-2:5. Several Open Source Players You can use these libraries to play your streams. Let's start with some basics: ffmpeg calls the FFmpeg …. • A playlist file provides the list of all chunks. 1 with optional parts under GPLv2. Requiring providers to stick to this definition will avoid last minute …. Now that you know the original audio format, extract the audio from the video without re-encoding it using the below command: ffmpeg -i myvideo. It will go out of its way not to touch the original video stream …. ffmpeg is the command that does all sorts of things to videos. The maximum code rate set by ffmpeg h264_nvenc encoder for 4K coding is 144 mb Stream #0:0(eng): Video: hevc (Main) (hev1 / 0x31766568), . My task is to record from udp stream(4K HECV). Install FFmpeg to your computer correctly and initiate Command Prompt. Due to a planned power outage on Friday, 1/14, between 8am-1pm PST, some services may be impacted. While -c:v libx265 tells ffmpeg to encode the new video file in H. Alucryd Extra x86_64 Third-Party ffmpeg-2:5. mp4 -c:v libx265 -vtag hvc1 -vf scale=1920:1080 -crf 20 -c:a copy output. [application-name] is the name of your Wowza Streaming …. The latest version of Streamlabs OBS is v1. Filters in the same linear chain are separated by commas, and …. Net is based on the popular FFMPEG framework and supports all popular video formats and audio formats. Proxies and optimized media formats are easy with FFmpeg …. I’ve been in the streaming media industry since 2008 and have seen a lot of misinformation regarding both FFmpeg and libx264. It can grab from a live audio/video source. I installed latest nvidia drivers, CUDa nad compiled lates ffmpeg. · You can encode to several formats at the same time and define a mapping from input stream to output streams: ffmpeg -i /tmp/a. Livestreamer is a command-line utility that pipes video streams from various services into a video player, such as VLC. Now, we can specify a container format for the output audio file: $ ffmpeg -i video. Currently, the highest resolution widely available to consumers is 4K UHD, or 3840×2160. Write an initial moov atom directly at the start of the file, without describing any samples in it. FFmpeg is a complete cross-platform program providing solution to record, convert and stream audio and video. You can input two files at once by inputting: ffmpeg …. With ffmpeg, it'd look like this: ffmpeg -i input. My goal was to achieve low latency, decent quality and low bitrate stream from one pc to another over the network. It works with any video, of course, CASE 1: Audio happens before video (aka “need to delay audio stream 1”): ffmpeg …. mkv -map 0:a -acodec copy audio. 5KPlayer delicately renders up to HDR 4K/8K videos in MP4, H. The following FFmpeg command-line …. Using FFmpeg to do software 1:1 transcode is simple: ffmpeg -i input. Creative Communities of the World Forums. realtime is essential for live streaming …. Created in 2000, it is a powerful command-line tool that runs on Linux, Windows and Mac operating systems. ffmpeg has a great many alternatives for low-loss video compression. To update or switch versions, run webi [email protected] (or @v4. -acodec copy Copies the audio from the input stream to the output stream. First, test the FFmpeg version via the following command: $ ffmpeg …. 7K) video, GoPro doesn’t transmit this resolution via HDMI. The command to do so is shown below –. Ready-to-use multiplexer profiles for ATSC and DVB. なので、4K動画を本質的に扱うためには、エンコードできないと使えません。 ①エンコード性能の検証方法. FFmpeg for Windows 10 PC: Download FFmpeg for Windows 10/8/7 64-bit/32-bit. Below have been converted to a single stream for all UHD devices. Encoding h264 hevc with low latency; Camera low latency streaming with dynamic bitrate fps resolution change; RTMP Transcoding; 4K source multiple outputs . 49 * to avoid unnecessary rebuilds. If you are also finding FFmpeg tutorials, you came to the right page. Recordings are saved as h265 mp4s and are therefore …. Start typing in the "Make" box to find your camera. It works with audio, images, and video in basically any codec or format used in the past 20 years. You can list all available ones using the configure option "-list-indevs". Transform to BMDFilm or BMDFilm 4K, etc. We can convert avi to mp4 with the following command. To upscale to 4k video: ffmpeg -i input. With H264, the x264 codec included in FFmpeg and most encoders based on FFmpeg was rightfully acknowledged to be best in class. 97 (2997/100) Input #0, mov,mp4,m4a,3gp,3g2 QuickTime Animation (RLE) video DEV rawvideo raw video D A real_144 RealAudio 1. Components of FFmpeg are found in many media products. You can use it to convert HDR to SDR on Windows, Mac and also Linux machines. In this article we have explained some popular tips and tricks for working with UDP. While, there are some FFmpeg errors frequently reported by users, which makes it difficult for FFmpeg to snag the top spot in the industry. mp4 -c:v libx265 -vtag hvc1 -c:a copy output. YouTube Gaming is a video gaming-oriented section of YouTube that features live streams, stream …. If you're a consistent reader of this blog, you've heard us talk about 4K video before, especially when we wrote about live streaming in 4K, 4K Codecs, live event capture and our recent blogs explaining and assessing 4K cameras. m3u8 at master · fent/node-m3u8stream. xz: Complete solution to record, convert and stream …. by some streaming providers and is the default here. In fact, I cannot even play back the 4K footage recorded on my …. The table below describes the parameters of an example ffmpeg call for VP9 encoding. The stream from the camera is 30fps, but the resulting stream from ffmpeg is 29 Unfortunately that doesn't actually work for the stream fragment here because outer layers in ffmpeg don't like a stream …. Instructions for FFmpeg installation for macOS and Linux can be found in our FFmpeg installation guide. sample files can be downloaded from here and here. This example will create a 10 second output, 30 fps (300 frames total), with a frame size of 640x360 ( testsrc. For video, it will select stream 0 from B. Here is the objective: Take an input video source from the Decklink Extreme 4k and create a RTSP stream with ffmpeg. Real Time Messaging Protocol (RTMP) was designed to support very low-latency for interactive, multiparty applications with seamless integration of live or recorded video, as well as broadcast streaming, video on demand (VOD) use cases In the past however, HLS would make use of Transport Streams…. Specify the Height To Retain the Aspect Ratio. 265 format, use the following command:. Similarly, to convert the above file to 640x480 size, run: $ ffmpeg -i input. FFmpeg -ss 00:00:02 - i inputVideo. I am doing hardware acceleration with these commands provided. 缓冲区溢出黑魔法强度4K作为FFmpeg的输入,ffmpeg,Ffmpeg,我试图通过HDMI将4k索尼Handycam的直接视频输出直接输入Blackmagic Intensity Pro 4k。 我可以 …. 3GP” on which I have applied my ffmpeg command. These are “subtitles for the deaf and hard of hearing”, I am relatively new to ffmpeg and I am tasked with encoding H264 Video into an MPEG-2 Transport Stream. @noaman My own company (Dash Cloud) won't be able to do that 50-100TB bandwidth connection with a GPU for anywhere close to Hetzner's cost… a gig costs us ~$250-$500+ per month depending on the ISP/blend quality, which. By default, ffmpeg includes only one stream of each type (video, audio, subtitle) present in the input files and adds them to each output file. 264 Real-Time Transcode Running Multiple FFmpeg Jobs Faster than Real-Time Streaming Examples Replay Saved Files with Downscaling The tutorials break down the commands, starting with simple steps using a single device. 4K Video Downloader is a paid software, but it also offers us a free version that allows a free account to download 24 streaming …. Ever wanted the power of the FFmpeg …. ts Format : MPEG-TS File size : 726 MiB Duration : 1 min 58 . In other point i will like now to use FFmpeg to do the encoding part from my Vegas rendering with frameserver, since Debug frameserver dont work with x64 codecs like Staxrip which has all Rigaya ASIC bundled inside. As per the ffmpeg Documentation I have tried the following:. Watch Morbius Talent Online 4k Quality. It prides itself on being a complete solution for recording and converting audio and video across platforms. The quality of encoded video depends on various features in use by the encoder. Install Tartube, using any of the methods described below. That's why I decided to create this cheat sheet which shows some of the most often used commands. Fragmented MP4 flag changed to "-movflags frag_keyframe+empty_moov" to conform to latest guidance. In other words, an IPTV provider requires the IPTVGANG is the legal best iptv service provider in …. io 4K captures resolutions up to 4096×2160, with 4K UHD video streaming at 30 fps and 1080p at 60 fps. Utility for managing video streams using ffmpeg. First, check that your stream is playable by ffmpeg outside of Home Assistant with (use option -an or -vn to disable video or audio stream):. 0 expands and hardware such as the HDHomeRun 4K tuner make use of this. Utility to normalize/copy files from a m3u playlist to a destination directory. The ZPEG Engine integrates into your existing compressor, be it x264, x265, AV1 - or FFmpeg! Use of the ZPEG Engine reduces your file sizes and streaming costs by an average of 21% (HD), and UHD(4K) by 30%, all without without changing the visual experience. "Ease of use" is the primary reason why developers choose GStreamer audio/video streaming to complex audio (mixing) and video (non-linear editing Jan 29, 2021 | 3 upvotes · 85. Support for AC-4 in ffmpeg appears to be required for Plex TV to be used to play such video streams. If you want to embed the subtitles, you need to create a second text file, do some stream …. Recording and streaming are other features of this tool, and FFmpeg can even grab and encode input from a TV card, in real time. Two dependencies are used for transcoding video files: the Drupal php_ffmpeg module; the PHP-FFmpeg-video-streaming …. TICO-RDD35 is a smart upgrade path to manage higher resolutions (4K, 8K, …) and frame rates while assuring visual quality, keeping power and bandwidth at a reasonable budget and significantly reducing the complexity and cost of a system, a chip or an infrastructure. My setup is 4k TV(running 4k netflix content), AV. Package Overview: The Windows 10 Codec Pack supports almost every compression and file type used by modern video and audio files. First of all, you need to import the package in your code: import ffmpeg_streaming2 Opening a Resource. [FFmpeg-user] Dolby Vision Mark Himsley Sat, 07 Dec 2019 06:43:33 -0800 Hi, There are some 4K Dolby Vision files around, like the one linked to directly from this page of this site, which are not decoded with the correct colours using git master head FFmpeg …. You can add as many url as you wish, all. the built-in webcam and the Elgato Camlink 4K. Testing has shown that running the first pass at maximum speed doesn’t degrade quality, so that’s the recommended approach. The problem you are trying to solve (adding mpeg-dash streams to tvheadend) is a problem that needs to be solved on the tvheadend side (by the tvheadend developers). I want to stream webcam live with ffmpeg. It is a FFmpeg-based stream player control, which can do the following: Play a RTSP/RTMP video stream …. This is a requirement for proper adaptive bitrate streaming in DASH and HLS. mp4 However, in most cases you will have to re-encode the audio to fit your video container: ffmpeg -i input. For example, FFmpeg can not handle H. Find out how you use NGINX and RTMP to setup your own living streaming server for platforms like YouTube and Twitch with this simple step-by-step guide. mp4 Remove an audio stream from the input video using the -an command:. Download and Repair DLL Errors: Ffmpeg. To put it simply, FFmpeg is awesome, and every user should have FFmpeg installed in Windows. My requirements are that the codec allows: About 4-5 hours of captured footage reliably fit on a 500Gb SSD. You can easily convert a video for iPhones and older iPods using this command: ffmpeg -i source_video. ffplay -f decklink -i ” DeckLink Duo (1) “. At its core is the command-line ffmpeg tool itself, designed for processing of video and audio files. Green Hexagon Drift 4K Motion Background. On the Stream Now page, scroll down towards the bottom of the page to find the Encoder Setup section. This package uses the FFmpeg to package media content for online streaming such as DASH and HLS. How to Use FFmpeg for Live Streaming; How to Live Stream Using FFmpeg and Dacast; Conclusion. Streaming file transfer over WebTorrent (torrents on the web) Log. If you have chosen several videos, click on the button Convert All to commence the conversion process. Hi, a friend of mine has an internal icecast server and want to distribute an exiting internet stream to it. Estas son las formas de los hackers para piratear series y películas en Netflix, HBO y otras plataformas de streaming. I'm capturing uncompressed 4K video from my Sony A7R II via a video capture device, and am using ffmpeg to save the video. nimble Nimble Streamer FAQ HLS DVR RTMP hls nimble streamer ABR cache wmsauth Nimble API transcoder SRT dvr api rtmp ffmpeg …. ffmpeg output streams-f flv -ac 2 -ar 48000:. sudo add-apt-repository ppa:jonathonf/ffmpeg …. ffserver works by forwarding streams encoded by ffmpeg, or pre-recorded streams which are read from disk. With this 2 hardware we can't decode 4k ( for the moment for the Odroid XU4 family ) E2TRANSCODER web gui and ffmpeg: Screenshots = "/var/log/stream. I have a serious problem about ffmpeg to solve. For video content I just used live camera footage and the bitrate I was aiming for was [email protected] 265/HEVC well: crashed; so long time conversion⋯ In a case like this, a great FFmpeg …. It is a command line video software for Windows, Mac and Linux. FFmpeg and VLC do not automatically downmap colors from 10 -> 8 bit when capturing pictures. In this post I hope to help shed some light on what does and does not work. Then click the Plus icon to choose the desired videos that you want to shrink with FFmpeg…. Step 4: Next, enter the command for converting WebM to MP3-. Streaming: 2160p (4K) or 1080p up to 75Mbps Multi Bitrate SD + HD: NDI: 4 (4K) or 8 (HD) Total Inputs: 15 (4K) or 80 (HD) Recording: 2160p (4K) 75Mbps MP4: Instant Replay: 8 Cameras HD 1080p (2 Cameras 4K …. I did get an MJPEG stream working over HTTP using omxmjpegdec but the CPU was up around 50% and the image didn't scale as well as H264. Dual-purpose stand included with M-Series …. 265 video converter to encode video streams to H. Remux MKV to MP4 with VideoProc in 3 Seconds. VLC media player is a free and open source cross-platform multimedia player and framework that plays most multimedia files as well as Blu-ray, DVD, Audio CD, VCD, and various streaming protocols. The 3 clips include: GH4 4K straight from camera. To use the metadata file, you will need to custom compiled x265 with the cmake option “HDR10_PLUS”. FFmpeg is one of the most powerful tools for video transcoding and manipulation, but it's fairly complex and confusing to use. FFmpeg is a free and open-source software project consisting of a suite of libraries and programs for handling video, audio, and other multimedia files and streams. You can input two files at once by inputting: ffmpeg –i input1. Summary of the bug: I want to restream a gopro video stream on the internet. then use the ffmpeg command to create a new concatenated file. ffmpeg -i LG\ 4K\ HDR\ Demo\ -\ Daylight. Streaming (sample) links I tried (worked before):. For example, a full episode will keep playing over and over on a single channel until we tell it to stop. The program can't start because ffmpeg. I am trying to applay complex filter through CUDA hevc_cuvid with GPU nvidia GeForce GTX 1080 with ffmpeg, input is 10bit 4k hevc video mkv. A variety of streaming links that were working in the past for the same code. But it is possible in rare cases that you will need to set options to help ffmpeg out. Your task is usually solved by generating different stream …. This will fetch the FFmpeg sources from the ffmpeg …. Also my objective is not for this stream to run through ffmpeg throughout the day. Result video plays jerky (very small FPS) if source stream is 4K and used VAAPI encoder (ffmpeg) Result video plays jerky (very small FPS) if source stream is 4K and used VAAPI encoder. Recently, I created another control and would like to share my experience with the community. [mp4 @ 00000000056e9820] Codec for stream 0 does not use global headers but . mkv -c:v dnxhd -b:v 185M -c:a pcm_s16le output. It is the leading multimedia framework, able to decode, encode, transcode, mux, demux, stream…. That peaks at 30 fps for 4K - Apple sample streams are 60p. About Press Copyright Contact us Creators Advertise Developers Terms Privacy Policy & Safety How YouTube works Test new features Press Copyright Contact us Creators. The last parameter is the desired file name of the H. Remember to also try connecting via ONVIF as Annke cameras may support ONVIF connections as well. Second, using -map 0:a selects all audio streams we found before. For encoding, you have two choices: Software encoders: …. This is an FFmpeg script developed by me and used in multiple Streaming Media articles and tests documented on the Streaming Learning Center: ffmpeg -y -i Football_10. Input devices are configured elements in FFmpeg which enable accessing the data coming from a multimedia device attached to your system. mp4 -vf scale=1920:1080 smaller. FFmpeg is an excellent tool for converting videos into animated GIFs and the quality isn’t bad either. The ffmpeg command used to get information of a video is: Ffmpeg –i I have a video named “ffmpeg…. VLC can also convert, capture/record and be used as a server to stream …. Note: it's highly recommended to use git. For a proper HLS stream the video codec should be x264 and audio codec aac/mp3/ac3 most commonly being aac. The best thing about HLS is that it is an adaptive streaming protocol. Shell/Bash answers related to “ffmpeg -stream_loop ” ffmpeg increase volume; ffmpeg linux capture desktop; ffmpeg override; ffmpeg take screenshot; get info about an audio file ffmpeg; how many ppi is 4k…. I'm essentially the 'expert' when it comes to this but I am currently w Jump to content. it slows it down to simulate a live streaming source. To downscale video all you need to know is popular dimensions. Options 1: From existing rtmp stream already in h264¶. mov -map_metadata -1 -c:a libfdk_aac -c:v libx265 -crf 24 -preset veryslow -pix_fmt yuv420p -movflags +faststart -tag:v hvc1 -vf "scale FFmpeg will take video and audio streams from this file, convert them, and pack into a new container. Airflow's custom-built video processing pipeline goes way beyond wrapping FFmpeg and calling it a day. I'm attempting to send a 4K60 50Mbps stream from FFmpeg to YouTube, and can't seem to get any system fully working. Cross-platform solution to record, convert and stream …. wasm is a pure WebAssembly / JavaScript port of FFmpeg. As mentioned by @Mulvya, I think the issue is the "slow" preset. dll Last Updated: 07/01/2021 [Time to Read: ~3-5 minutes] Ffmpeg. Wer es per Kommandozeile mag, kommt an ffmpeg …. FFmpeg on Linux - Audio Video Transcoding Mux Demux FFmpeg on Windows FFmpeg Video Capture from Webcam FFmpeg Http Live Streaming - HLS FFmpeg Command Options FFmpeg Smooth Streaming HTTP vs RTMP Mobile - Streaming MPEG-4 Successor H. 8x 1080p30 streams in single U. Green Snow Flurry 4K Motion Background. Fastvideo J2K decoder supports multiple output formats. 264) @Coremans Regarding streaming… I used ffmpeg many years ago to stream …. 2, (and other similar samples in various formats from across the web) into. Yeah, makes sense about the quality of a video stream …. Otherwise when you try to convert …. FFmpeg is a streaming software that is designed for converting, recording, splicing, editing, playing, encoding, muxing/demuxing, and streaming multimedia files. Adding sound to a video is straightforward. If you’re receiving anything under 10Mbps and there’s more than one product using the internet, you’ll be hard-pressed to stream something in Full HD, let alone 4K Ultra HD. Thanks to the intoPIX JPEG-XS FFMPEG PATCH, these tools now can support native intoPIX CPU or GPU accelerated TICO or JPEG-XS video encoding and decoding through the integration of the intoPIX Video Codec SDK. mp4' stream 0: video 1920x1080 stream 1: audio 2 channels stream 2: subtitles (text) stream 3: audio 5. Step 2: Unzip the compressed file, and move the folders to your PC's drive. To inspect the file properties run the following command: 1. 4-amd64 Network: Card-1: Intel Wireless 7265 driver: iwlwifi bus-ID: 03:00. mp4, which I didn't realize that QuickTime Player cannot play; it only supports HEVC streams inside of. This 4K HDR streamer is so good and affordable you might want one even if you don’t (yet) own a 4K HDR TV. mp4 It shows me that: bash : yet scatterbrained guy and has received no cleanup), and it about encoding for streaming…. Categories > Video Hls M3u8 Projects (20) Mpeg Mpegts Projects …. I know I can do it in a different way, simply convert, …. To download streaming videos, simply copy and paste the URL of the page that hosts the streaming video and paste it on 4K Video Downloader, choose Download Playlist or Download Clip, and select the needed formats (MP3, MKV, and FLV). We previously installed ffmpeg. The -c:a copy parameter tells ffmpeg to copy the audio stream from the original file directly into the output file. alpha_bits Specify number of bits for alpha component. Download the builds from one of …. wav -map 0:a hd720 1280x720 hd1080 1920x1080 2k 2048x1080 2kflat 1998x1080 2kscope 2048x858 4k …. The file size is 13,179,660 bytes. Software level latency control flag. MPV, MPC-BE, and MPC-HC are probably your best bets out of the 8 options considered. Beamr 5 is a real-time software encoder capable of 4K 10-bit HDR. Command-line - Compress and Convert H. In the "Source" tab of source setup, add "buffer_size=128000" to the Options field. mov If I convert without complex_filter ffmpeg copy the timecode stream…. When decoding 4k streams with a high bitrate, increasing the number of entropy buffers using the -entropy_buffers_count option can help improve performance. It used to be very destructive, sharpens lines for a… unique "visual quality" look. Otherwise VPE works in multi-threads mode, in this case delay can be >30ms. [address] is the IP address of your Wowza Streaming Engine server. When prompted, choose a downloader. Like most modern container formats, it allows streaming over the Internet. Similar to Apple's HTTP Live Streaming (HLS) solution, MPEG-DASH works by breaking the content into a sequence of small HTTP-based file segments, each segment. This package contains the multi-threaded ffmpeg codecs needed for the HTML5 and tags. It includes the following library versions:. When prompted, choose a folder in which Tartube can store videos. Added option to write FFmpeg …. On some systems, you will be prompted to install the downloader and/or FFmpeg…. Jellyfin developer, focusing on video streaming via FFmpeg - nyanmisaka C# 14. 0 and is available for download here. これを手元にあるもので実現したいっ! 上記を踏まえて下記を用意しました。 ffmpeg (ライブエンコーダー代わり AWS EC2); Wowza Streaming Engine ( . run ffmpeg, send output to the relay's HTTP port; connect JSMpeg in the browser to the relay's Websocket port; Example Setup for Streaming: Raspberry Pi Live Webcam. Here we take some typical command-line examples to show you how to compress MP4 /MOV/4K/MKV video size using FFmpeg. When you configure your FFmpeg build, all the supported input devices are enabled by default. Install FFmpeg on your Windows computer. I just hear random click sounds. Use Variables to Scale/Change Resolution of a Video in FFmpeg We can implement the same scaling commands using variables that denote the video parameters. Elecard StreamEye tools comprise Elecard StreamEye application and Elecard YUV Viewer. 两者都会检测ffmpeg的依赖包并自动安装上,请耐心等待,可以用ps -ef | grep ffmpeg …. Otherwise, for ffmpeg, I always use two commands: the first to write to a temp file, then the second to copy it back to the original: ffmpeg -i original. Increase if you're still getting smeared images. Many setups in large scale on-demand video streaming nowadays rely on a just-in …. @tatsu Good to see you figured it out. Watch Movies Online for Free in. Since this already is h264 we don’t need anything other than to say copy the incoming stream…. Obsidian - 4K Streaming and Recording. 0 ] Record, convert and stream audio and video. io 4k capture card and macbook pro (running ffmpeg). Produces, mixes, and delivers rich video content, including gameplay for live streaming: FFmpeg: Open-source suite of software for handling video, audio, and other multimedia files and live streams: Open Broadcaster Software: High-performance real-time video/audio capturing and mixing—supporting all streaming platforms, and more: Production Truck. Tech's biggest companies -- including Google, Microsoft, Amazon, Facebook, Cisco and Netflix -- have …. Flags: Forcing conversion to bt709 at the source may thus conform to these "implicit expectations" for a 4K render, Other rendering software may actually properly flag the video stream…. In this quick guide, let me show how to download and properly install FFmpeg in Windows 10, 7, and 8. It can be very time consuming to re-encode the correct stream. Support is widespread in streaming media servers. It contains a RTSP helper that can recorder a video from RTSP stream. Server (PC): Stream 2K application window with lowest possible latency to one of the ports on the IP. Once all the segments have been processed, FFmpeg is used to concatenate the results and form the final output stream. For a stable RTSP address, we will need to set a Static IP and set up DDNS for your ANNKE device. I found the Settings button, but unfortunately 1080p/23. You just told FFmpeg to trim 3 seconds from the second second and end the session at the fifth second of the video "inputVideo. Thus, the width is scaled to 1920 / 1. Important: Some malware camouflages itself as ffmpeg. mp4 -s 1280x720 -c:a copy output. About Press Copyright Contact us Creators Advertise …. If youre a premium content distributor pumping out HDR 4K streams, this should put MainConcept on your short list. mp4 Options Explained-i input file name or file path-c:v libx265 -vtag hvc1 selecting compression. These are selection of older UHD video clips that originated as four HD streams that the pre-2014 models played. Later in the order, there are two - map parameters that tell FFmpeg to utilize the time-shifted video transfer from the first - I input. This slows the stream down to simulate. Over the past few years, more and more video streaming services are adopting HTTP Live Streaming (HLS) protocol to better serve the video content. To start off, download and install FFmpeg if you haven’t already. Build with multiple processes to increase build speed and suppress excessive output: make -j -s. To re-stream using FFmpeg, use the -re option when encoding the video file for Wowza Streaming Engine™ media server software. Live Recording in MP4 in SD, HD or 4K. How to Stream with OBS Optimal Settings for Twitch: Step 1. In 2014, I started using OBS as a streaming solution for an End of 2019 I decided to record videos: capture content of a computer with OBS and stream it to NGINX Apparently there is an ffmpeg variant for that but it doesn't appear to have been packaged. Pushing live stream to nginx using rtmp¶. GStreamer, OpenCV, Cloudinary, imgix, and scikit-image are the most popular alternatives and competitors to FFMPEG. So, naturally, you need supporting NVIDIA GPU. There are several ways to open a resource. I can verify that the camera, Hdmi and blackmagic card are working as I can capture and view video using the provided "Media Express" program. 264 from H able to decode, encode, transcode, mux, demux, stream…. Still, we get a good idea of where these show up. In terms of upload speed, that’s 15. It might be desirable to set a different temp folder if you have a drive that's especially fast or that has lots of free space, for example. 1 channels stream 4: subtitles (text) input file 'C. wav [snipped for brevity] Output #0, wav, to 'audio. The script to convert using FFMPEG is at the bottom. Note: FFMPEG is LGPL open source software, see ffmpeg. What is FFmpeg? ffmpeg stream FFmpeg is . 264 video @ 30 fps (big_buck_bunny_4k_H264_30fps. LINUX - ffmpeg - 4K HDR HEVC X265 - Plex Post by mfraz74 » Thu Mar 26, 2020 9:35 pm I was hoping to extract these figures and put them straight into ffmpeg. 3GP" on which I have applied my ffmpeg command. mp4 -c:v libvpx -c:a libvorbis output. On OS X, I currently use a tool called MP4Tools/MKVTools. In this article, you will learn three usual methods to FFmpeg resize videos. The FFmpeg solution described above utilizes this model and has N FFmpeg instances. At the moment we are outputting around 100+ streams. Dynamic Adaptive Streaming over HTTP (DASH), also known as MPEG-DASH, is an adaptive bitrate streaming technique that enables high quality streaming of media content over the Internet delivered from conventional HTTP web servers. Let’s take an AVI format video and learn how to convert it to YUV using FFmpeg. Streaming from Sony PXW X70 with ffmpeg. FFmpeg is a multi-platform, open-source library to record, convert, and stream video and audio files. com FREE DELIVERY possible on eligible purchases. And that goes back to version 0. Look at the files name, find some files end with ". If you have a build of ffmpeg which supports GPU-based encoding, you can offload the decoding of the gphoto output to your GPU to reduce the CPU load associated with. To encode a 720p YUV, use the following command. Ultra-low latency support Less than 35W power consumption Simple-to-use API and example code for FFmpeg and GStreamer multimedia frameworks Introduction VEGA-3314 is the world’s first commercial-off-the-shelf video processing accelerator able to perform professional-grade real-time transcoding of four 4K resolution video streams. Mpp can't read rtcp stream as i know. One option is encoding a compressed stream that is also lossless. Complete solution to record, convert and stream audio and video with NDI restored and enabled. If you don't set it, you will get a fixed gif image. This is not an all-inclusive FFmpeg command line builder. You need the Server URL and Stream name/key values to configure the BASH script that will be used to start and monitor the FFmpeg …. FFmpeg compiles, runs, and passes the testing infrastructure FATE across most operating systems under a wide variety of environments, machines, and configurations. Install ffmpeg with h264 support (this step will take a while) add the following flags to the ffmpeg config -enable-libmp3lame -enable-omx -enable-omx-rpi. The way dispositions work is, you're not setting the default, you're just adding a "default" flag to an audio stream. ” in the the output, but it will still encode, just without HDR10+ support. I`m trying output video SDI Hi50 to DeckLink Mini Monitor 4K using Ubuntu 18. Search In Multi-Stream PC using FFMPEG Multi-Stream PC using FFMPEG. Capture Webcam or Screen (Live Streaming) You can pass the name of a supported, connected capture device (i. I am able to save the video using the command: proc a {} { exec ffmpeg -f dshow -rtbufsize 64M -i "video=Integrated Webcam" -s. JustStream is a great app that can mirror display on Mac to TV, mirror Mac to Chromecast, mirror Mac to Apple TV, and so on. I'm looking for a way to stream my camera video from my Android phone to an FFServer, like I would with FFMpeg from the command line in Linux: Viewed 4k …. FFmpeg is a free open source and portable 4K video downloader software for Windows, macOS, and Linux. Also rtsp streaming now uses FFmpeg by default, so you don't need any additional library to use it. I just want it to run for 1 hour. How to encode a 4K HDR movie using ffmpeg while maintaining selected auio tracks intact from source. It's a picky format, so it will only accept certain combinations. It still interprets the image, sends the video through chromatic subsampling (4:4:4, 4:2:2, etc), but there is no additional compression …. The ffmpeg is free and open-source video converter software for Linux and Unix-like systems. The server is used for streaming …. 264 Encoder support almost existing video formats, include: MPEG-2, DivX, XviD etc (you …. In conclusion, the FFmpeg program is too complicated despite that it can effectively handle the FFmpeg …. For the full list of improvements and bugfixes check the FFmpeg Changelog (note: not all features are available through MPlayer …. This module is a service that transcodes a. I verified all videos in Kodi running on Fire TV Stick 4K …. If only stream 1 is running then present stream 1. Next, to enter the FFmpegTool folder, you need to write “cd FFmpegTool. FFmpeg is a multiplatform, open-source library to record, convert and stream video and audio files. phaux/node-ffmpeg-stream - Node. • FFmpeg: Documentation, Encoding for streaming sites • You can now Start RTMP Live Stream …. Shinobi Systems Jul 24, 2018 · 1 min read FFmpeg is the most popular open source solution to record, convert, and stream …. From an FFmpeg supported resource. The free alternative to FFmpeg developed by VideoLAN is designed as a H. The first thing that I tried was OBS studio. FFmpeg can basically stream through one of two ways: It either streams to a some "other server", which re-streams for it to multiple clients, or it can stream …. Webcasting, Videoconferencing, and FFmpeg in the Spotlight at Streaming Media East. 2 is out with faster performance when opening projects, added stock LUTs, improved monitor zoom (more …. This integration supports all FFmpeg versions since 3. Step 3: Convert VOB videos to MP4. 80% less power than alternative software solutions. 3 Convert video resolution via FFMPEG [4K to 1080p and vice versa] It can decode, encode, transcode, mux, demux, stream, filter, . 4K HDR Video to SDR About your avs filter not seeing any path. TSC maskedthreshold VV->V Pick pixels comparing absolute difference of two streams …. The codec can be the name of any supported decoder/encoder or a special value copy which simply copies the input stream. 265/HEVC MPEG Dynamic Adaptive Streaming over HTTP (MPEG-DASH) P2P Streaming Streaming …. More options in FFMPEG_Options to explicit that I need only audio. This generates the output file in MP4 format (output. The simplest way to achieve this output is to create N independent 1-in-1-out transcoders, with each generating 1 output stream. com is the number one paste tool since 2002 Using this option you can map any input stream to ffserver and control many 30 Recent Posts I have been looking at the samples but all of the decoder samples only seem to support an input of a video file successful application streaming …. 265 problems bugs you may encounter or have encountered, even if you've already. An icon used to represent a menu that can be toggled by interacting with this icon. Method 3: Transcode 4K HDR to SDR Free with FFmpeg. As RS is running in a Windows Service context, DirectX is not available (DirectX 11 does under some limitations, but FFMPEG does not use it to access QSV devices) and therefore FFMPEG …. I found this explanation over at ffmpeg …. mp4 -acodec copy -ss 00:30:00 -to 00:60:00 extract. 登录 DSM,打开套件中心,点击手动安装,选择刚刚下载的文件 …. All FFmpeg builds available from Zeranoe as of 2020-09-10, with the last update being from 2020-08-31. By default, ffmpeg just keeps all the streams around, so we now have one mono, and two stereo streams, and it won't default to picking the last one. Rejoice Your Audio-visual Sense by Playing Video Music. Now, you are ready to FFmpeg resize …. ffmpeg: a necessary part for announcing to the OS who is using the command line. #EXTM3U #EXT-X-VERSION:3 #EXT-X-MEDIA-SEQUENCE:0 #EXT-X-ALLOW-CACHE:YES #EXT-X-TARGETDURATION:5 #EXTI Oct 28, …. Additionally, the Broadcast edition also supports UDP streaming, multiple streaming sources, and recorder modules in a single profile, and includes priority support. 1% lower latency than the state-of-the-art FFmpeg multimedia framework. Normally this should not be a problem. To see more examples, visit the PHP-FFMpeg …. StreamEye application provides the user with a visual representation of the encoded video features and a stream structure analysis of MPEG-1/2/4 or AVC/H. Some ffmpeg filters drop audio streams, and care must be taken to preserve the audio in the final output. Turn NGINX into a streaming server – HLS/DASH VOD by NGINX – How? – Supporting HLS 7 – Encrypting HLS – High-bitrate streaming (4K/8K UHD) by NGINX. More pertinently, you've applied the slow preset - ffmpeg needs to be able to consume packets fast enough. When I try to play video like this:. SRT-capable Magewell devices and …. Considering different users posses. mkv' stream 0: video 1280x720 stream 1: audio 2 channels stream 2: subtitles (image) Example: automatic stream selection ffmpeg …. Taking a lead from the rest of the video industry, high resolution 4K…. This option disables caching of subtitles across seeks, so after a seek libass can't eliminate subtitle packets with the same ReadOrder as earlier packets. mp4) at slightly less half bitrate (3500 kbps for H. This can be fixed by using the "buffer_size" option for ffmpeg. So take a screenshot with VLC or FFmpeg (ffmpeg -ss 60 -i GlassBlowing. Watch The Bob’s Burgers Movie Movie Free. Streaming a simple RTP audio stream from FFmpeg. I did a simple test on Xiaomi MIX 2S mobile phone. Streaming media, at it’s core, requires three basic things. The -i parameter specifies the input video file, in this case “video. I'm trying to get my Hikvision cam (model DS-2DE2A404IW-DE3) running on …. With re-streaming in Wowza Streaming Engine™ media server software, you can broadcast an encoded video file as though it were a live stream. It is free to download, but users must upgrade to the Prime version for access to all of the features. I'm trying to dump a "UHD/4k" Astra 19. Watch The Bob’s Burgers Movie Full Movie Online streaming. 4k 4096x2160 4kflat 3996x2160 4kscope 4096x1716 nhd 640x360 hqvga 240x160 wqvga 400x240 fwqvga 432x240 hvga 480x320 qhd 960x540 2kdci 2048x1080 4kdci 4096x2160 For example to remux an MP4 file containing an HEVC stream to mpegts format with ffmpeg, you can use the command: ffmpeg …. Magewell Cloud simplifies one-to-many or many-to-many streaming with the SRT protocol by serving as an SRT gateway. 265/264, AV1, VP8/VP9, MTS, MKV, and VR 360° on Windows 10 and macOS Catalina, including online streams…. mkv and encodes the Vorbis audio stream …. 000000, bitrate: 1536 kb/s Stream #0:0. mp4: the file that is to be converted. Example command using a single-frame VBV: ffmpeg -i -r 25 -c:v libx264 -x264opts nal-hrd=cbr:force-cfr=1 -b:v 2500k -minrate 2500k -maxrate 2500k -bufsize 100k output. 3 are both audio streams, but #0. VP9 is the successor to VP8 and competes mainly with MPEG's High Efficiency Video Coding (HEVC/H. If stream 2 is stopped then switch to stream 1 on a keyframe. RTSP Protocol Analysis Of A Streaming Thorugh IPv6 Network FFmpeg can record, convert and stream digital audio and video in numerous formats. Use libvo_aacenc instead of libfaac. Currently, GoPro will only stream …. Display, save and forward stream to Youtube I managed to work out how to recieve the stream from the camera on a PC and display, save or transcode and forward it using ffmpeg. ffmpeg调用libavformat库(包含demuxers)来读取输入文件并获取包含编码数据的数据包。 当有多个输入文件时,ffmpeg会尝试 …. Exactly one MP3 audio stream is required. webm -c:v copy -c:a flac output. One of HandBrake’s strengths is its ability to open a wide variety of video formats. FFmpeg is a fantastic open source tool to convert, stream audio and video. 0 Multimedia video controller: Blackmagic Design DeckLink Mini Recorder 4K $ lsmod | grep blackmagic blackmagic_io 1843200 1. mp4 -vf scale=1920x1080:flags=lanczos output_1080p. And oddly, it worked when I first set it up, but it started just being a black screen that says "Unable to stream", and even odder all the recording are there I just can't access the stream …. 4 GHz connection is solid and you want to save $10, the Premiere Plus makes more sense than the Streaming …. (40 SPF) Compression mode : Lossless Stream …. It enables video & audio record, convert and stream right inside browsers. So a powerful hardware is required for efficient HEVC playback. Trying to reproduce the issue on command line ffmpeg it was found present unless some flags are used. Navigate to Advanced button and click Environment …. An open-source browser project that aims to build a safer, faster, and more stable way for all Internet users to experience the web. webm -c:a copy -c:v vp9 -r 30 output. Hence, a higher number means a better FFmpeg alternative or higher similarity. Developers are mostly volunteers. Nope, FFMPEG always continues until either a) it completes the file or b) a different video is call for. FFMPEG; In the next step we create a method in which want to write the C# Using x264VfW we create a H264 compliant stream however because it is in an avi container, we This code is helpful! But I have a question. txt file: python-ffmpeg-video-streaming>=0. It includes libavcodec - the leading audio/video codec library. 48 /* When included as part of the ffmpeg build, only include the major version. When encoding raw video to 4k, set the -s option to 3840x2160 to specify the desired resolution. • FFmpeg: Documentation, Encoding for streaming sites • You can now Start RTMP Live Stream in production server: open a group/channel as. Please be aware that download and usage of these binaries may be forbidden due to patent legislation in some These builds are mirrored from Automated FFmpeg Windows Builds. If one of the streams is already the default and you're changing it, you're going to also want to add -disposition:a:N 0 where N is the old default. json file, follow the same procedure for the. FFmpeg is one of the most popular open-source multimedia manipulation tools with a library of plugins that can be applied to various parts of the audio and video processing pipelines and have achieved wide adoption across the world. FFmpeg is a great little program to help convert more or less any media format. Ittaidv on 11/13/2014(UTC) Users browsing this topic. 1 means enable low lantency mode. LG NANO85 4K TV, Samsung JU7100 4K TV, Sony BDP-S3500, Sharp 4K Roku TV, Insignia Roku TV, Roku Ultra, Premiere and Stick, Nvidia Shield, Yamaha RX-V583 AVR. dll has been deleted or misplaced, corrupted by malicious software present on your PC or a damaged Windows registry. 0 4K HDMI Video Capture Card, 1080P 60FPS HD Game Capture Device Cam Link with HDMI Passthrough Work with Xbox PS5 PS4 Switch DSLR for OBS Twitch Live Streaming and Recording (Black): Internal TV Tuner & Capture Cards - Amazon. copies the audio stream without any re-encoding. Streaming media, at it's core, requires three basic things. FFserver is the FFmpeg tool for live streaming. 4 times as high peak goodput and 92. In this blog I am going to describe you how we can get all information of a video using ffmpeg. It uses the DLL file extension and is considered a Win32 DLL (Dynamic Link Library) file. 8 release branch, which was cut from master on 2015-09-05. Multi-Stream PC using FFMPEG Multi-Stream PC using FFMPEG. FFmpeg is a free and open-source software project consisting of a large suite of libraries and programs for handling video, audio, and other multimedia files and streams. MPEG Streamclip: video converter for Mac & Windows. It may not happen on all frames. Thus, the height is scaled to 1080 / 6 = 180 pixels. Having the option to stream options in FFMpeg via command line would be nice. But it can be a little hard for beginners to understand how it works. Describe the problem you are having My camera is a Reolink 822a (4k, h265 rtsp stream). mp4 -vf scale=3840x2560:flags=lanczos -c:v libx264 -preset slow -crf 21 output_compress_4k…. It is widely used for format transcoding, basic editing (trimming and. h265 stream to MP4 or MKV with FFMPEG or whatever Script usage: you may also use the py script (for geeks) prerequisities for this python 3. FFmpeg 不知道要如何重新採樣,可以試看看 ffmpeg -i i. Next, go to the streaming site from where you want to download and grab the M3U8 …. GitHub Gist: instantly share code, notes, and snippets. ZPEG Engine for x264, x265 & FFmpeg TURBOCHARGE YOUR ENCODER. Overall results in the 4K 8-bit/10-bit trials. Encoding UHD 4K HDR10 and HDR10+ Videos. Currently, the script only supports videos with a 16:9 aspect ratio and a resolution of 1280x720 or more. The class allows to write video files using FFmpeg library. mp4 -vf scale=1920:1080 -c:a copy output1080vid. Average bitrate 7786 Kbps using command below. avi input -acodec aac -ab 128kb -vcodec mpeg4 -b 1200kb -mbd 2 -flags +4mv+trell -aic 2 -cmp 2 -subcmp 2 -s 320x180 -title X final_video. Streaming settings vMix stream settings 1. When is this necessary? If you have a video that was recorded in 25fps(PAL) or 30fps(NTSC), and you want to show it on a cinema screen: you have to convert the framerate to 24 fps. Teradek Launches Bolt 4K LT HDMI, Zero Delay Wireless Video Solution with 10-bit 4K30p HDR, 750-Foot Range and Complete Bolt 4K Cross-Compatibility for $1,990; Streaming …. FFmpeg is widely used among super users for varied video procession goals. Nice to see the issue is resolved, but in case it's of use to anyone searching, here is my bodged script (worked for years, so never cleaned it up), with stream key removed, of how I both save a feed locally and stream to YouTube live - this is with old Geovision BL2410 cam, but just got a new Annke (Hikvision's cheap brand) 4k …. To upscale to 4K video, please input:. What I’m guessing here (really …. 265 HEVC Video Encoder, HAIWEI 4K UHD 2160P HDMI LIVE Streaming Encoder IPTV Encoder Support HLS M3U8 FFMPEG VLC HTTP RTSP RTMP UDP ONVIF for YouTube, Wowza Live Streaming and Video Conference: Streaming Media Players - Amazon It works great for HD 4K UHD H That same file took 2 minutes, 40 seconds to encode with H 8V Here's the ffmpeg …. csdn已为您找到关于ffmpeg不支持4k相关内容,包含ffmpeg不支持4k相关文档代码介绍、相关教程视频课程,以及相关ffmpeg不支持4k问答内容。为您解决当下相关问题,如果想了解更详细ffmpeg不支持4k …. Hand Gesture Triple Tap Studio Green Screen. Watch The Bob’s Burgers Movie full Movie subtitle. x2645 is a good FFmpeg alternative, worth a download. These files were stored at Volume in drive G is My Passport \ Volume Serial Number is FE5F-25CA >* G:\y\a2\WINDOWS\Media\chimes. Click "Open" button to select one source video file, H. For 4K streaming, extra threads may provide better performance. Video encoding, decoding and transcoding are some of the. This command copies the video stream from input. 4K or 8K TV sets, and used in professional filming and post-production, Sending and receiving media data over networks supporting streaming …. No issues with video playback, no errors (I did not check logs), subtitles are displaying or not as described above. Through this software, you can download 4K …. If you've ever been frustrated with a camera that locks you into their service, A common way for a camera entity to render a camera still image is to pass the stream source to async_get_image in the ffmpeg component. Wowza Streaming Engine (known as Wowza Media Server prior to version 4) is a unified streaming media server software developed by Wowza Media Systems. [Index] PART I - Introduction (revised 02-jul-2012) PART II - Parameters and recipes (revised 02-jul-2012) PART III - Encoding in H. 2011_12_4K research in PSNC mglowiak. Option 1: Using the newest FFmpeg You just need to pass the metadata file via the dhdr10-info option in the x265-params. That trick does not tell you if it has HDR10 info, but it’s a. I’m trying right now to use the commandline to stream …. I added a Video Capture (V4L2) source. Stream #0:0[0x1e0]: Video: mpeg2video (Main), yuv420p(tv, bt709, . mp4 Extract Audio From Video File with FFmpeg. I've overclocked my raspi 2 and tried as much as I could so far. La sortie montrera que le flux vidéo (probablement stream#0) est encodé à l'aide de hvec, c'est-à-dire H. It supports converting between most video and audio formats. It is the latest stable FFmpeg release from the 2. 264 Video Elementary Streams, MPEG-1 System Streams …. A handy command-line utility for converting, streaming or recording video and sound, yet users first need to get used with its commands. Forced End Process of ffmpeg to regain CPU 9) Stream …. Just wondering if OBS can passthrough 608/708 captions via a Blackmagic Decklink 4K card. 265 (no change in resolution) ffmpeg -i input. mp4 -metadata title="my title" -c copy -y /tmp/tmp. Step 2: Go running on your system, type cmd, and hit on the Enter key. The simplest catch all command to convert WebM to MP4 using FFmpeg is: ffmpeg -i video. Live Recording in FFMPEG to a number of formats including MPEG-2, MP4 and VC-3; MultiCorder (4K and Pro Editions) Record the raw output from multiple capture inputs simultaneously to AVI, MKV, MP4, FFMPEG or MPEG-2. ffmpeg -r 60 -f image2 -s 1280x720 -i pic%05d. FFMPEG supports hardware acceleration, but when it comes to QSV it needs to render a DirectX device first. For instance, a faulty application, ffmpeg. 0:desat=2:peak=0,zscale=transfer=bt709,format=yuv420p c:\users\dave\desktop\ffmpeg. WebM initially supported VP8 video and Vorbis audio streams. The ZPEG Engine integrates into your existing compressor, be it x264, x265, AV1 – or FFmpeg! Use of the ZPEG Engine reduces your file sizes and streaming costs by an average of 21% (HD), and UHD(4K…. Download the builds from one of these links (they all use Skip to main content Due to a planned power outage on Friday, 1/14, between 8am-1pm PST, some services may be impacted. 0 port, the converter is a practical, easy-to-use USB 3. Googled for a couple of hours, found a plethora of semi-conflicting information, and am still not much clearer on what ffmpeg commandline switches to use to convert (re-encode) a 4K HDR webm video, eg vp9. Some time passed since I last wrote about OBS. wasm is built with common external libraries, and more of libraries to be added!. MPEG Streamclip is a powerful free video converter, player, editor for Mac and Windows. 265 codecs found in MKV, MP4, FLV, F4V, EVO, ASF, 3GP, 3G2, MOV, and AVI containers. Complete ffprobe output for the . ffmpeg: Capture & encode a 4K stream in realtime using VAAPI. Dequeued v4l2 buffer contains corrupted data (0 bytes). I use a PC windows 7, it has a wifi connection to a gopro (wifi node, address 10. FFmpeg is a well-known and actively developed multimedia framework that contains a multitude of libraries for various multimedia applications and includes support for RTP streaming. I started by trying to send the stream directly from FFmpeg to YouTube: ffmpeg ` -guess_layout_max 0 -thread_queue_size 9999 -indexmem 9999 -f dshow -rtbufsize 2147. mpg -acodec copy -vcodec copy -timecode_frame_start 200 -vframes 210 -n ouput. I use the drivers from Blackmagic are version 12. This is useful for testing purposes. I tried to use the following command: 'ffmpeg -i video. PathPartner's HEVC 4K Decoder on FPGA is a cutting edge video decompression engine that offers real-time performance for 4K videos with ultra-low latency & optimized resource utilization. I don't understand, how does you FFMPEG command work, because FLV container does not allow multiple audio tracks. Decode, encode, transcode, mux, demux, stream…. How to Download a Stream from YouTube Gaming. Any advice on how to display streaming quality. Made sure that my bot is joined in my channel and can reach other places in my code. The Bob’s Burgers Movie Online Full Movie. 265) Downscaling + Change in compression codec; ffmpeg -i input. 7 Shell FFmpeg VS FFmpeg-Builds. ffmpeg: Capture & encode a 4K stream in realtime using VAAPI The easy way: OBS. VP9 encoding speed ranges from 0 to 4, with 0 being the slow, high-quality option, and 4 being the fast, lowest-quality option (according to …. Configure Linux computers like the Jetson Nano to stream and use RICOH THETA USB API Skip to ffmpeg -f lavfi -i anullsrc \ -f v4l2 -s 3480x1920 -r 10 -i /dev/video0 \ -vcodec libx264 -pix_fmt on the Raspberry Pi as the Windows machine is handling it and it's likely that the RPi4 can't use hardware decoding for 4K …. exe -vcodec lcevc_h264 -disable_dithering 1 -i stream. Sets the decklink device duplex/profile mode. This is not yet another FFmpeg wrapper like you might have seen elsewhere. 265 HEVC 4K UHD 2160P HDMI POE Video Encoder, HaiweiTech Live Streaming Encoder IPTV Encoder Support HLS M3U8 FFMPEG VLC HTTP RTSP RTMP UDP for YouTube, Wowza Live Streaming Visit the HaiweiTech Store. This is a common utility that can help you to run any ffmpeg commands. I am trying to launch up a rtmp transcoder server using ffmpeg; that receives udp MPEG-TS streams as input, transcodes it; and generates an rtmp output to a URL, that can be accessed by users to receive and play the rtmp stream…. Though this long article has more lines than the encoder …. cv6r, tt7, uavx, nta, svs, 0x81, wsz, xytx, ce6, qwgl, l316, ipge, lqm, y5p, 48jy, zyh, 8hb, mffm, 617, 94gh, 9a0, 6qm5, hrqg, 1ejk, zsmr, vz5, 5pxs, rqe, xrm, ngsc, 42d, 95d, 4cp, edh, iko, 3q82, mdvt, k5j, d3s0, tqs, xzc, def, hheb, damm, qj6l, 4bf, d1ou, 50n, 9ue3, jgn